Поиск по категориям

скачать walter trout band торрент

 

 

 

 

Торрент скачать бесплатно фильмы, сериалы, игры, музыка, книги, программы, КПК » Передачи торрент скачать » Walter Trout Band - Rockpalast [2011 гTop 10 за месяц (Передачи). Игорь Маменко (Сборник выступлений)[2005-2014 г Юмор, TVRip, SATRip] ( скачиваний: 43).Walter Trout Band-In Concert Год выпуска: 1997 Жанр: Blues Продолжительность: 01:16:51 В ролях: Popa Chubby Walter Trout Band Описание: Popa Chubby Anything You Want Me To Do LongОткрыть топик Скачать .torrent. Похожие темы. Форум. Тема. Автор. Торрент. Отв. Walter Trout Band слушать онлайн. Перетаскивание Бесконечная прокрутка. Walter Trout BandTellin Stories 6:26. Прослушатьскачать.алишер файз 2017 мр3 скачать бесплатно.

Скачай walter trout outta control и walter trout faithful.Walter Trout band — Deeper Shade Of Blue. 07:49. 1. Скачать и установить торрент-клиент (Torrent, BitTorrent, Azureus и др) на компьютер. 2. Скачать торрент Walter Trout His Band - Luthersфильмов, сериалов, игр, музыки и софта, будь то зарубежные сериалы, русские сериалы или мультсериалы и скачать через торрент. walter trout band. (бесконечная прокрутка). слушать.

(скачать). Walter Trout Band - Tellin Stories. (добавить в избранное) 29:19. слушать. Размер: 2.57 GB. Торрент добавлен March 9, 2017 admin Posted in: Оцифровки с аналоговых носителей Tagged: blues, jungle, tracks, trout, walter.На Torrent Square вы всегда можете найти и скачать самые последние торрент новинки. TITLE Serve Me Right To Suffer PERFORMER Walter Trout Band FLAGS DCP INDEX 00 46:31:07 INDEX 01 46:34:72.Концерт Феличита (2010) SATRip скачать через торрент бесплатно ( скачиваний: 6). Софтинку скачать надо! Книжкубы почитать!Walter Trout His Band / Luthers Blues. Дисковод: PLEXTOR DVDR PX-880SA Adapter: 1 ID: 0. Режим чтения : Достоверность.

Скачайте альбом Walter Trout целиком или любую из 16 песен альбома! Или просто откиньтесь в кресле и слушайте онлайн.Got A Broken Heart Walter Trout Band. 06:09. Walter Trout Band - Rockpalast Страна: USA Жанр: Blues Rock Продолжительность: 01:03:03 Год выпуска: 2011 г. Треклист: скачать на Torrent Room.Отзывы. Похожие Торренты на различные тематики. Небольшая просьба: Если Вам понравился наш сайт и Вы используете его для прослушивания и скачивания mp3 песен, пожалуйста, поддержите проект лайком, плюсом, твитом в соцсетях!Walter Trout - WALTER TROUT BAND - MARIES MOOD. Walter trout band Size: 100 Seed: youtube - Leedsdownload. Captain Beefheart And The Magic band trout Mask House Sessions [Storytime Portion] Size: (28.79 MB ) Seed: 965 - Leeds: 8282. Скачать торренты бесплатно и без регистрации! База magnet-ссылок Рутрекера.Walter Trout And The Radicals | The Walter Trout Power Trio / Discography [54 Releases] [with Canned Heat, Joe Bonamassa, Rollo Markee The Tailshakers, His Band, John Mayalls Bluesbreakers] -- --Жанр Walter Trout Band Life In The Jungle 1990 FLAC Rem 2002.На этой странице показаны все возможные торренты для walter trout. Вы можете скачать абсолютно бесплатно walter trout через магнет ссылку, аналог торрента без загрузки torrent файла. Исполнитель: Walter Trout His Band Страна: USA Альбом: Luthers Blues Тип альбома: Студийный Год выпуска: 2013 Жанр: Blues-RockДля того, чтобы скачать с помощью торрента не нужно платить. Главное правило торрент-трекера: скачал сам, останься на раздаче. Торрент, скачать торрент бесплатно, трекер без регистрации и СМС, все торренты Казахстана и России для интернета Megaline и Билайн.Вход Регистрация. (2013) Walter Trout His Band/Luthers Blues (Blues-Rock) [MP3, 320 kbps/CBR]. Слушать песни - walter trout band deeper shade of blue marie mood онлайн музыка.Walter Trout BandMaries Mood. (слушать онлайн) (скачать). торрент (Big Band, Swing) Onzy Matthews - Mosaic Select 29 (1963-1965) (3CD) - 2007, FLAC (треки .cue), без потерь.скачать бесплатно. (Пост-хардкор) Похороны для друга - молодые и беззащитные (EP) - 2010, FLAC (треки .cue), без потерь. скачать Walter Trout mp3 бесплатно и без регистрации. музыка mp3 - архив музыки и видео. Музыка представлена в формате mp3. Фотографии, дискография, музыка Walter Trout. Track 14 15. False Alarm. The Walter Trout Power Trio.Как скачивать Что такое torrent (торрент). Сайт не распространяет и не хранит электронные версии произведений, а лишь предоставляет доступ к создаваемому пользователями каталогу ссылок на торрент-файлы Раздают: 3 Качают: 3. Скачать торрент.Почти двадцать лет он выступал в группах самой разной стилистики, пока в 1989 г. не организовал свою собственную - Walter Trout Band (позже - Walter Trout and the Radicals). Walter Trout Band. Добро пожаловать на наш музыкальный сайт Муз-колор! Слушайте онлайн или качайте музыку - Walter Trout Band бесплатно в mp3.1992 Live (No More Fish Jokes) 1994 Tellin Stories 1997 Positively Beale Street 1998 Walter Trout 1999 Livin Everyday 2000 Live Trout: Recorded at the Tampa Blues"Это повергло меня в шок", - признаётся Троут в позднем интервью. Скачать Walter Trout - Discography (1989-2016) бесплатно и без регистрации через торрент.Описание альбома. Walter Trout Band. 1989 - Life In The Jungle (320 kbps). 01. Good Enough To Eat 02. Walter Trout Band - Time For Movin On, Walter Trout Band - Tremble, Walter Trout Band - I Thought I Heard The Devil все новинки музыки 2016 года слушай и качай бесплатно Все песни «Walter Trout Band » слушайте бесплатно online на сайте - ladious.ru слушать онлайн или скачать mp3 Музыка со всего интернета слушайте onlain бесплатно и без регистрации. Walter Trout Band - Rockpalast Страна: USA Жанр: Blues Rock Продолжительность: 01:03:03 Год выпуска: 2011 г. Треклист: 01.Как скачивать Что такое torrent (торрент). Информация о торренте. Название. Walter Trout Band - Rockpalast [2011 г Blues Rock, SATRip] скачать. Категория. джаз и блюз видео. Rutorka.net - торрент-трекер. Бесплатно и без регистрации скачать torrent игры, фильмы, музыку, программы, сериалы, торент.Добавлено: 16 окт 2016, 13:01. Walter Trout Band - Transition. Жанр: Blues/Blues Rock Год выпуска диска: 1992 Производитель диска: Россия (Irond) Начни слушать (Walter Trout Band) прямо сейчас, без регистрации .Скачать "WalterTroutBand.mp3". На этой странице вы можете бесплатно скачать популярные альбомы и песни Walter Trout Band 544718 в mp3-формате, а также слушать их онлайн.все песни от: Walter Trout Band. (слушать онлайн) (скачать). На этой странице вы можете бесплатно скачать популярные альбомы и песни Walter Trout Band 1358200 в mp3-формате, а также слушать их онлайн.все песни от: Walter Trout Band. (слушать онлайн) (скачать). все песни от: Walter Trout Band. (слушать онлайн) (скачать). 04:12.Walter Trout BandMaries Mood. Список самых популярных песен . Раздают: 3 Качают: 0. Скачать торрент.Дополнительная информация: Уолтер Траут (англ. Walter Trout род. 6 марта 1951) — американский блюзовый гитарист и автор-исполнитель. Скачать WalterTrout-CommonGround.torrent. Как тут качать?Почти двадцать лет он выступал в группах самой разной стилистики, пока в 1989 г. не организовал свою собственную - Walter Trout Band (позже - Walter Trout and the Radicals). Walter Trout Band / Life In The Jungle. Used drive : PLEXTOR DVDR PX-740A Adapter: 0 ID: 0. Read mode : Secure Utilize accurate stream : Yes Defeat audio cache : Yes Make use of C2 pointers : No.< Скачать >. Детали торрента: Название Walter Trout Band - Rockpalast [2011, Blues Rock, SATRip].Скачивайте торренты без ограничений и без всяких регистраций на трекерах. Начните скачивать торрент Walter Trout прямо сейчас! Walter Trout Band - Breaking The rules Жанр: Blues/Blues Rock Год выпуска диска: 1995 Производитель диска: Россия (Irond) Аудио кодек: APE Тип рипа: image.cue Битрейт аудио: lossless Продолжительность: 53:27 Трэклист: 01.Как скачивать Что такое torrent (торрент). Скачать торрент » Музыка и Музыкальное видео » Jazz, Blues » Jazz, Blues (lossless). Статистика раздачи.Suffer.wav" WAVE TRACK 10 AUDIO TITLE "Serve Me Right To Suffer" PERFORMER " Walter Trout Band" INDEX 01 00:00:00. В 1989 году Траут начал сольную карьеру, сформировав собственный проект Walter Trout Band.Что-бы бесплатно и без регистрации скачать Walter Trout через торрент - воспользутейсь данной инструкцией. Здесь вы можете скачать в mp3 и слушать онлайн бесплатно песни Walter Trout Band. Все песни от Walter Trout Band на Mp3co.ooo. Walter Trout - Excess Baggage (5:54).ПОМНИ! Уходя с раздачи, ты не даешь скачать этот файл другим пользователям. Помощь в раздаче - стимул к созданию новых торрентов. Download Walter Trout Band Torrent for free, Full Movie And Tv Shows Streaming Link Also Available to Watch Online.Torrent added: 2009-12-22 17:37:51. Alternatives:Walter Trout Band Torrents. Torrent Files List. Announce URL Исполнитель: Walter Trout His Band Страна: USA Альбом: Luthers Blues Тип альбома: Студийный Год выпуска: 2013 Жанр: Blues-Rock Формат: MP3 Битрейт: 320 Тип битрейта: CBRАплоадер: Админ, дата: 27-08-2013, 22:17, торрент скачан: 359 раз. Понравилась раздача? Me Right To Suffer.wav" WAVE TRACK 10 AUDIO TITLE "Serve Me Right To Suffer" PERFORMER " Walter Trout Band" INDEX 01 00:00:00.Скачать торрент [ Размер 16.34 КБ / Просмотров 0 ]. Статус: Проверен. На музыкальном портале Зайцев.нет Вы можете бесплатно скачать и слушать онлайн песни Walter Trout band в формате mp3. Лучшая музыкальная подборка и альбомы исполнителя Walter Trout band. Скачай walter trout outta control и walter trout faithful.Walter Trout band — Maries Mood. Бесспорно, что Волтер Троут и его группа The Radicals сегодня входит в число ведущих мировых исполнителей блюз-рока и современного блюза. Еще альбомы Walter Trout. Download. Скачать раздачу по magnet-ссылке 443.3 MB.

Свежие записи: