Поиск по категориям

скачать фильм great expectations

 

 

 

 

Скачать торент на большой скорости, торент игры, торент фильмы, торрент музыка, книги торент, сборники софта, wallpaper обои для рабочего стола » Фильмы » Драмы » Большие надежды / Great Expectations (2012) DVDRip | Лицензия. Когда юный Финн впервые увидел прекрасную Эстеллу, сердце его разбилось. Несмотря на предсказание, гласящее о том, что страсть к Эстелле не принесет ему ничего хорошего, Финн поклялся завоевать прекрасную девушку. Кино-Много смотреть фильмы и сериалы онлайн скачать бесплатно » Смотреть сериалы онлайн » Зарубежные » Большие надежды / Great Expectations (2011). В первом случае сразу пойдет закачка фильма. Во втором случае Вам придется скачать Большие надежды / Great Expectations (2012) BDRip торрент, а затем скаченный файл открыть в программе uTorrent. Мы предоставляем вам возможность скачать Большие Надежды / Great Expectations (2012) HDRip торрент, минуя процесс регистрации.Возвращаясь к нам за новыми фильмами, играми, вы даете нам стимул наполнять сайт еще большим количеством ценного контента и Сериал Большие надежды смотреть онлайн, или скачать через торрент бесплатно. Большие надежды - 3-хсерийная костюмированная драма по одноименному роману Чарльза Диккенса.Все фильмы. Новинки кино. Новинки фильмы. Большие Надежды / Great Expectations (2012) HDRip от Scarabey скачать торрент. Страна: Великобритания, США Жанр: драма Год выпуска: 2012 Продолжительность: 02:08:13 Перевод: Профессиональный (полное дублирование) [лицензия] Cубтитры: нет У нас вы можете скачать торрент Большие надежды / Great Expectations (1998/HDRip-AVC), а также многие другие фильмы абсолютно бесплатно и в хорошем качестве. Все торрент фильмы на одном сайте. Фильм вышел на телеэкран в 1998 году и получил хорошую критику, а также завоевал популярность у любителей позднего творчества великого писателя. В настоящее время смотреть эту остросоциальную драму могут посетители нашего интернет-кинотеатра. Фильм снят по мотивам романа Чарльза Диккенса «Большие надежды» (Great Expectations, 1860).Скачали: 6 раз(а) [ список скачавших ]. Участники: 1 раздают, 0 качают (1 участников всего). Хотите скачать фильм Большие надежды / Great Expectations 1 Сезон HDTVRip DVDRip? У нас Вы можете скачать его совершенно бесплатно без регистрации. Самый большой архив фильмов в высоком качестве! Скачать торрент фильмы, сериалы, мультфильмы, передачи бесплатно » Фильмы торрент скачать » Большие надежды (2012) (Great Expectations) скачать торрент бесплатно.

Скачать торрент Большие надежды / Great Expectations (1998).Фильм о любви и надеждах. О чувствах и доброте. Начиная смотреть это кино, невольно погружаешься в сказку, о которой так долго мечтал. Great Expectations. Слоган: «Загадочная история о поисках счастья».Скачать. и как фильмец? lyukor. ща посмотрю-скажу, а то 700 пользователей скачало и ни 1го коммента-видимо всех устроило ).Документальные фильмы.

Скачать торрент.пространство : YUV Субдискретизация насыщенности : 4:2:0 Битовая глубина : 8 бит Тип развёртки : Прогрессивная Бит/(ПикселиКадры) : 0.184 Размер потока : 2,05 Гбайт (70) Заголовок : Great Expectations Библиотека кодирования : x264 core 130 r2273 Фильмы, мелодрама, драма. Режиссер: Альфонсо Куарон. В ролях: Итан Хоук, Гвинет Пэлтроу, Хэнк Азария и др. Когда юный Финн впервые увидел прекрасную Эстеллу, сердце его разбилось. Несмотря на предсказание, гласящее о том Драма. Режиссер: Майк Ньюэлл. В ролях: Джереми Ирвин, Холлидей Грейнджер, Рэйф Файнс и др. В центре сюжета - история молодого человека по имени Пип, который рано остался без родителей и был воспитан взбалмошной сестрой. [лучшие фильмы] [кино Большие надежды онлайн] [качество фильма Great Expectations (Большие надежды)] [про фильм Большие надежды]. Мы уверены, что помимо фильма "Большие Надежды / Great Expectations HDRip/BDRip-AVC", Вы найдете в нашей коллекции множество других фильмов которые сможете скачать бесплатно! Интернет-проект Game-Over1.Net - это возможность скачать игры, фильмы, СОФТ с помощью Torrent. Игры в самых разных жанрах, фильмы на любой вкус, а также компьютерные программы и Прочие. Драма. Режиссер: Майк Ньюэлл. В ролях: Джереми Ирвин, Холлидей Грейнджер, Рэйф Файнс и др. Молодой сирота по имени Пип получает шанс навсегда забыть о своем бедном существовании благодаря таинственному благодетелю. Скачать новый фильм Большие надежды / Great Expectations (2012) DVDRip, рассказывается о молодом человеке по имени Пип. Рано осиротев, Пип был воспитан взбалмошной сестрой, которая постоянно. Rus-media.org - открытый торрент трекер - скачивайте любые торренты и смотрите фильмы ОНЛАЙН без регистрации и рекламы.Большие надежды / Great Expectations. Год выхода: 1998 Жанр: драма, мелодрама Режиссер: Альфонсо Куарон. Большие надежды / Great Expectations (2012) HDRip бесплатно скачать торрент в HD бесплатно.Фильм: Большие надежды Оригинальное название фильма: Great Expectations Год выпуска фильма: 2012 Жанр: фэнтези, драма Режиссер: Майк Ньюэлл В ролях: Хелена Название: Большие надежды Оригинальное название: Great Expectations Год выхода: 2012 Жанр: драма, мелодрама РежиссерО фильме: В центре сюжета - история молодого человека по имени Пип, который рано остался без родителей и был воспитан взбалмошной сестрой. Год выпуска фильма: 2012 Жанр: драма Режиссер: Майк Ньюэлл В ролях: Хелена Бонем Картер, Рэйф Файнс, Робби Колтрейн, Джереми Ирвин, Джейсон Флеминг, Салли Хокинс, Холлидей Грейнджер, Юэн Бремнер, Дэвид Уоллиамс, Софи Рандл Выпущено: Великобритания, США Большие надежды / Great Expectations | HDRip-AVC. 15601277541.45 GB.Как смотреть фильмы онлайн. Как скачать с трекера. Что означает "Примагнититься". Можно ли изменить имя (Логин). Главная load » Торрент фильмы » драмы » Скачать Большие надежды / Great Expectations (2012) BDRip | Лицензия через торрент. Название: Большие надежды Оригинальное название: Great Expectations Год: 1998 Страна: США Слоган: «Позволь страсти быть твоей судьбой.». Режиссер: Альфонсо Куарон В главных ролях: Итан Хоук, Гвинет Пэлтроу, Хэнк Азария, Крис Купер, Энн Бэнкрофт, Роберт Де Ниро Находить и скачивать новинки кино в HDRip и BDRip качестве через tparser намного проще! Добро пожаловать на крупный торрент архив фильмов и игр tparser.org.

Начните скачивать торрент Great Expectations прямо сейчас! Скачать .torrent файл (основная ссылка для скачивания файла)Оригинальное название: Great Expectations Название: Большие надежды Год выходаДоп. информация: Довольно простой сюжет (а какой ещё может быть сюжет у мелодрамы?), но фильм остаётся в памяти. Название в оригинале: Great Expectations Название на русском: Большие надежды Год: 2012 Страна: Великобритания Режиссер: Майк Ньюэлл В главных ролях: Хелена Бонем Картер, Рэйф ФайнсХудожественные Фильмы. Категория. Просмотров: 36157, Скачан: 16, Спасибо: 14. У нас вы найдёте огромный архив с торрент материалами - это будут игры, фильмы, музыка, программы и многое другое. Вам лишь стоит зайти в понравившийся материал и скачать его соответственно. Для того что бы скачать фильм Большие надежды / Great Expectations (2012) BDRip 1080p бесплатно воспользуйтесь ссылками выше. Если ссылки скрыты - зарегистрируйтесь. Скачать фильм Большие надежды / Great Expectations (2012/BDRip/HDRip) с облако маил, смотреть фильм онлайн, по прямой ссылке, с торрента. Скачать торрент.Примечание: Фильм получил два Оскара за Лучшую работу оператора (ч/б фильмы) и Лучшую работу художника (ч/б фильмы), а также был номинирован в следующих номинациях: Лучший фильмБольшие надежды / Great Expectations (2012) BDRip 720p | D. Скачать Фильмы Бесплатно, Смотреть Фильмы Онлайн, Скачать Одним Файлом, торрент emule.Название: Большие надежды Оригинальное название: Great Expectations Год выхода: 2012 Жанр: драма Режиссер: Майк Ньюэлл / Mike Newell. Драмы, премьеры. Информация о фильме Название: Большие надежды Оригинальное название: Great Expectations Год выхода: 2012 Жанр: драма Страна/Студия: Великобритания, США / BBC Films, Lipsync Productions Вы находитесь на странице, где можете бесплатно и без регистрации скачать Фильм Большие надежды / Great Expectations (2012) DVDRip через любой торрент клиент. Бесплатно и без регистрации скачать torrent игры, фильмы, музыку, программы, сериалы, торент.2:0 Битовая глубина : 8 бит Тип развёртки : Прогрессивная Бит/(ПикселиКадры) : 0.184 Размер потока : 2,05 Гбайт (70) Заголовок : Great Expectations Библиотека кодирования Название: Большие надежды Название зарубежное: Great Expectations Год: 2011 Страна: Великобритания, США Режиссер: Брайан Кирк В ролях: Дуглас Бут, Джек Рот, Рэй Уинстон, Дэвид Суше, Пол РисСкачать фильмы через torrent бесплатно! Качество фильма: HDRip Тип видео: AVI.Большие надежды / Great Expectations (1946) BDRip от HQ-ViDEO скачать через торрент бесплатно. Скачать Большие надежды / Great Expectations (2012) DVDRip бесплатно. Информация о фильме: Название: Большие надежды Оригинальное название: Great Expectations Год выхода: 2012 Жанр: фэнтези, драма, экранизация Режиссер: Майк Ньюэлл В ролях: Джереми Ирвин Каталог торрентов » Фильмы » Драмы.Скачать торрент Большие надежды / Great Expectations Размер торрента: 34.8KbРазмер раздачи: 6.87 Гб Название файла: Great.Expectati.torrent. Скачать торренты бесплатно и без смс, фильмы через торрент, игры через торрент, музыка через торрент, только у нас через торрент.У нас Вы сможете скачать все, что Вам нужно: Музыка, видео, игры, программы абсолютно бесплатно! Главная » Кино, Видео и ТВ » Зарубежное кино » Фильмы 1991-2000.Большие Надежды / Great Expectations Страна: Великобритания Производство: British Broadcasting Corporation (BBC), WGBH Жанр: Драма, Экранизация Год выпуска: 1999 Продолжительность: 00:48:08 00 Great Expectations.Затем вы можете скачать торрентом фильм Большие надежды (2012) в хорошем качестве или из кинотеатра. Если у вас не получается загрузить torrent файл фильма бесплатно, то попробуйте найти ответ на этой странице. Смотреть Онлайн. Скачать Торрент. Оцените Сериал.Фильм вышел на телеэкран в 1998 году и получил хорошую критику, а также завоевал популярность у любителей позднего творчестваСмотреть онлайн сериал: Большие надежды — Great Expectations (2011). В ролях: Чарльз Диккенс, Майк Ньюэлл, Джереми Ирвин и др. В центре сюжета — история молодого человека по имени Пип, который рано остался без родителей и был воспитан взбалмошной сестрой. На торрент трекере бесплатно и без регистрации вы сможите скачать любые релизы, и посмотреть ОНЛАЙН как новинки кино, так и старые любмые фильмы.Большие надежды / Great Expectations. Перевод: Профессиональный (многоголосый, закадровый), cубтитры

Свежие записи: