Поиск по категориям

скачать менталиста 5 сезон 1 серию

 

 

 

 

Менталист (1-5 сезон) (2008-2013) скачать через торрент бесплатно и без регистрации, Менталист (1-5 сезон) (2008-2013) torrent.Роль Джейна в раскрытии целой серии загадочных преступлений высоко ценится коллегами. Менталист 5 сезон 1 серия "Красный бисер". Просмотрено. В закладки.Скачать серию через торрент. Скачать торрентом все сезоны сериала. У нас вы можете скачать торрент Менталист / The Mentalist [1-7 сезон: 1-151 серии из 151] (2008-2015) WEB-DLRip, совершенно бесплатно без регистрации. Вы находитесь на странице, где можете бесплатно и без регистрации скачать сериал Менталист / The Mentalist [1-7 сезон: 1-151 серии из 151] (2008-2015) WEB-DLRip торрент файлом, формата AVI в хорошем качестве с высокой скоростью. Смотреть онлайн сериал: Менталист — The Mentalist (2008-2015) 1,2,3,4,5,6,7 сезоны. 1 Сезон 2 Сезон 3 Сезон 4 Сезон 5 Сезон 6 Сезон 7 Сезон.Инструкция Как скачать Сериал, или отдельные серии сериала. Качество: WEB-DLRip Размер: 500 Мб / серия. О сериале: Джейн пытается выбить из сообщницы Кровавого Джона Лорелии информацию о маньяке.Скачать сериал Менталист (5 сезон) на файлообмениках: 01 серия: скачать с LetitBit 02 серия: скачать с LetitBit 03 серия KINOKRAFT.NET - новинки кино и сериалов торрент » Криминал » Менталист (5 сезон) / The Mentalist (2012).Роль Джейна в раскрытии целой серии загадочных преступлений высоко ценится коллегами. Скачать Менталист (1-5 сезон) (2008-2013) через торрент бесплатно, Менталист (1-5 сезон) (2008-2013) .torrent полная версия на русском языке.Серии «Менталиста» насыщенны интересными расследованиями серьезных преступлений, которые ведет неординарный Роль Джейна в раскрытии целой серии загадочных преступлений высоко ценится коллегами. Но суровый старший агент Тереза Лисбон противМенталист (5 сезон 01 серия) 2012 BaibaKo ananasix.avi - 616.39 Mb Менталист (5 сезон 02 серия) 2012 BaibaKo ananasix.

avi - 620.64 Mb Менталист 5 сезон скачать торрент - Патрик Джейн - детектив и независимый консультант из Калифорнийского Бюро Расследований (КБР), он использует свои отточенные, как лезвие, навыки наблюдени. Сериал Менталист 1,2,3,4,5,6,7 сезоны смотреть онлайн, или скачать через торрент.

Информация по торренту. Продолжительность сериала: 1 сезон 23 серии 2 сезон 23 серии 3 сезон 24 серии 4 сезон 24 серии 5 сезон 22 серии 6 сезон 22 серий 7 сезон 13 серий Скачать торрент фильмы » Сериалы » Менталист / 1 - 7 Сезоны.Да свершилось чудо в 22 серии 6 сезона. Очень ждала этого момента! Описание: Менталист - уникальная раздача, которая содержит все сезоны потрясающего криминально-детективного телесериала.Под несчастливой звездой / Still Star-Crossed (1 сезон: 1-7 серии из 7) (2017) WEB-DLRip. Название: Менталист (1-5 сезон) Оригинальное название: The Mentalist Год выхода: 2008-2013 Выпущено: США Жанр: триллер, драма, криминал, детектив Режиссер: Крис Лонг, ДэвидРоль Джейна в раскрытии целой серии загадочных преступлений высоко ценится коллегами. В ролях: Дэвид Баррет, Крис Лонг, Дэвид Наттер и др. Патрик Джейн — независимый консультант из Калифорнийского Бюро Расследований (КБР), он использует свои отточенные, как лезвие, навыки наблюдения для раскрытия тяжких преступлений. Смотреть Менталист (5 сезон) онлайн: График выхода серий: Статус: сериал завершён.The Scarlet Letter. 1 окт 2009, Чт. 2 сезон 1 серия. Redemption.Скачать торрент "Менталист (5 сезон)" бесплатно Скачать. Это перевод точно тв3? Сильно отличается от предыдущих, в худшую сторону. -- Я наркоман, по превьюшке судил, дальше всё норм.Укажите свой email для уведомления о любых изменениях торрента "Менталист / The Mentalist (сезон 5, серии 1-22(22)) [2012-2013 Менталист скачать торрентом все сезоны, включая последние серии. Для Менталист представлены все возможные озвучки и хорошее качество от 360p до 1080p!5 сезон. Скачать сериал Менталист (5 сезон) Оригинальное название: The Mentalist (Season 5) Год выхода: 2012 Жанр: Драма, детектив Режиссер: Дэвид Барретт В ролях: Аманда Ригетти, Робин Тунни, Саймо.Сегодня, 06 апреля. Призрачная башня (2018) 1 сезон. 8 серия(LostFilm). Роль Джейна в раскрытии целой серии загадочных преступлений высоко ценится коллегами. Скачать 20 серий из 24Скачать торрент фильм Менталист | The Mentalist (5 сезон) бесплатно без регистрации и без рейтинга. Фильмы в хорошем качестве » ФИЛЬМЫ-СЕРИАЛЫ » Американские сериалы » Сериал Менталист - 5 сезон (2012).Сериал Перевозчик - 1 сезон (2012)Телесериал ПЕРЕВОЗЧИК / TRANSPORTER: THE SERIES - 1 сезон (2012) — экшн-сериал по мотивам одноименной серии Менталист 5 сезон (2012/WEB-DL) онлайн. The Mentalist 5 season online Все серии сезона. Длительность: 00:45:00 Озвучка: Профессиональный многоголосый (BaibaKo) Страна: США.22. Правила Красного Джона / Red Johns Rules. скачать 69.03Мб на телефон. Здесь Вы можете посмотреть сериал Менталист 5 сезон (2012) бесплатно в хорошем качестве hd 720 на айфоне, айпаде, андроиде иВыберите серию для просмотра: 1 серия 2 серия 3 серия 4 серия 5 серия 6 серия 7 серия 8 серия 9 серия 10 серия 11 серия 12 серия 13 Сирена (1 сезон 1-2 серия). Фильмы.Название: Менталист (1-5 сезон) Оригинальное название: The Mentalist Год выхода: 2008-2013 Выпущено: США Жанр: триллер, драма, криминал, детектив Режиссер: Крис Лонг, Дэвид Баррет, Чарльз Бисон В ролях: Саймон Бейкер Скачать торрент.насыщенности : 4:2:0 Битовая глубина : 8 бит Тип развёртки : Прогрессивная Бит/(ПикселиКадры) : 0.182 Размер потока : 1,17 Гбайт (86) Заголовок : Менталист 5x01 Кроваво-красная бусина Язык : English Default : Да Forced : Нет Основные цвета : BT.709 Ограничение: Описание: Здесь вы можете скачать или смотреть онлайн полные серии 5 сезона сериала Менталист 2012 в mp4 формате прямо с андроид, планшета, psp, мобильного, кпк, айфона, смартфона и других устройств в хорошем качестве и бесплатно. Менталист (5 сезон, все серии). Пятый сезон сериала Менталист, скачать бесплатно в хорошем качестве который вы можете прямо сейчас, шел на канале CBS с 30 сентября 2012 по 5 мая 2013 года. Менталист / The Mentalist (Сезон 5, серии 01-18 (22)) (2012) WEB-DLRip (napaBo3uk) (обновляемая).Скачивайте торренты без ограничений и без всяких регистраций на трекерах. Начните скачивать торрент Менталист 5 сезон прямо сейчас! Скачать Менталист (5 сезон), The Mentalist, сериал бесплатно скачать торрент, триллер, драма, криминал, детектив, новинка кино. Скачивайте и смотрите предыдущие серии 1 - 4 сезонов любимого сериала "Менталист" 4 сезон на странице сайта. Как скачать отдельный файл из торрента?1 серия. 30 сен 2012, Вс. показать все серии. Сезон озвучен студией: BaibaKo. Смотреть сериал Менталист 5 сезон онлайн бесплатно. Информация. Rus-media.org - открытый торрент трекер - скачивайте любые торренты и смотрите фильмыИнформация о фильме Название: Менталист Оригинальное название: The Mentalist ГодРоль Джейна в раскрытии целой серии загадочных преступлений высоко ценится коллегами. Менталист (5 сезон 1-22 серии) baibako скачать торрент Сезон: 5 Серии: 1-22 Формат: AVI Качество: WEB-DLRip 720x400 Перевод: Профессиональное (многоголосое) baibako Размер: 12.65 GB Скачать: mentalist.2010.WebRip.103004.torrent [66,04 Kb]. Скачать торрент Менталист. Подписаться на добавление торрентов.Аноним. 6 Ноября 2012, 15:33. Уже пятый сезон начали по-маленьку. Роль Джейна в фильме "Менталист / The Mentalist (5 сезон)" в раскрытии целой серии загадочных преступлений высоко ценится коллегами.Скачать сериал «Менталист (5 сезон)» бесплатно c торрент. Статус: Проверено. Скачать торрент Менталист — The Mentalist (2008-2015) 1,2,3,4,5,6,7 сезоныНа сегодняшний день было выпущено 6 сезонов — 120 серии, продолжительностью по 44 минуты каждая. Скачать фильм Менталист через торрент бесплантно в хорошем качестве Описание: Патрик Джейн — детектив и независимый консультант из Калифорнийского Бюро Расследований (КБР), он использует свои отточенные, . Жанр: триллер, драма, криминал, детектив. Озвучка: ТВ3. Всего серий: 22.Скачать бесплатно [8.6 gb]. Похожие материалы.Менталист, 6 сезон 1-22 серия из 22 / The Mentalist [ТВ3] (2013). Cериалы все серии. На главную страницу.сериалы-бесплатно.рф » Сериалы детективные » Скачать сериал Менталист - 5 сезон (2012).Название: Менталист 5 сезон Оригинальное название: The Mentalist season 5 Год выхода: 2012 Жанр: Драма, детектив Режиссер: Дэвид Сериалы, детектив, драма. Режиссер: Эрик Ланёвилль, Джон Шоуолтер, Крис Лонг. В ролях: Саймон Бейкер, Робин Танни, Тим Кенг и др. Калифорнийское Бюро Расследований собрали в своей команде самых лучших профессионалов. Сериал: Менталист (5 сезон) Оригинальное название: The Mentalist (Season 5) Год выхода: 2012 Жанр: Драма, детектив Режиссер: Дэвид Барретт В ролях: Аманда Ригетти, Робин Тунни, Саймон Бейкер.Скачать сериал Менталист (5 сезон) через торрент: 1-14 серии Год выпуска: 2012 Жанр: Драма, детектив Режиссёр: Дэвид Барретт В ролях: Аманда Ригетти, Робин Тунни, Саймон Бейкер, Мария Александра Стифвейтер, Шон Тоуб Выпущено: США, СBS Продолжительность: 42 мин. ( серия). Дай скачать другим, не уходи с раздачи!!! Название: Менталист Оригинальное название: The Mentalist Год выходаРоль Джейна в раскрытии целой серии загадочных преступлений высоко ценится коллегами.5 сезон Качество: WEB-DLRip Формат: AVI Видео кодек: XviD Аудио Скачать mentalist.s01-05.dub.tv3.torrent Как тут качать? Менталист (1-5 сезон) (2008-2013) торрент.Роль Джейна в раскрытии целой серии загадочных преступлений высоко ценится коллегами. О сюжете фильма «Менталист 5 сезон».Время показа: 00:42:00. Скачать фильм Менталист 5 сезон все серии (могут все гости и пользователи кино-сайта, бесплатно в хорошем качестве). Скачать сериал Менталист 6 сезон бесплатно через торрент (4895 Скачиваний torrent). Информация по торренту. Продолжительность: 1 сезон 23 серии 2 сезон 23 серии 3 сезон 24 серии 4 сезон 24 серии 5 сезон 22 серии 6 сезон 6 из 24 серий Год выхода: 2012 Оригинальное название: The Mentalist Выпущено: США, CBS, Warner Bros.Менталист (5 сезон). 1 серия - Кроваво-красная бусина BaibaKo Скачать с LetitBit Скачать с Fileplaneta Скачать с Rapidgator. Сверхъестественное (13 сезон 1-14 серия).Менталист (1-5 сезон) (2008-2013) скачать бесплатно через торрент. Категория: Сериалы. 0. Скачали файл? Поставьте лайк!Менталист 3 сезон 1 24 серии из 24 The Mentalist 2010 2011 HDTVRip WEB Размер: 9.4Gb. Менталист BaibaKo сезон 4 эпизод 20 The Mentalist 2012 WEB DLRip Размер: 577.0Mb. Скачать бесплатно [8.6 gb].Менталист, 1-5 сезон 1-116 серия из 116 / The Mentalist [ТВ3] (Крис Лонг, Дэвид Баррет, Чарльз Бисон) [2008-2013, триллер, драма, криминал, детектив, BDRip, WEB-DLRip, D]. Битовая глубина : 8 бит Тип развёртки : Прогрессивная Бит/(ПикселиКадры) : 0.182 Размер потока : 1,16 Гбайт (76) Заголовок : Менталист 5x0160412053Полная лажа.

Это сборник серий с разных сезонов. КТо то еще скачал - посмотрел? присоединяюсь к вопросу.

Свежие записи: